#TITLE:Uber rave;
#SUBTITLE:;
#ARTIST:Rage;
#TITLETRANSLIT:;
#SUBTITLETRANSLIT:;
#ARTISTTRANSLIT:;
#CREDIT:;
#BANNER:uber rave_logo.jpg;
#BACKGROUND:uber rave_bg.jpg;
#LYRICSPATH:;
#CDTITLE:Lan.png;
#MUSIC:Uber rave.mp3;
#OFFSET:-0.020;
#SAMPLESTART:100.000;
#SAMPLELENGTH:12.000;
#SELECTABLE:YES;
#BPMS:0.000=175.000;
#STOPS:;
#BGCHANGES:;
// cache tags:
#FIRSTBEAT:36.000;
#LASTBEAT:388.000;
#SONGFILENAME:Songs/Super Dancer Online/Uber rave/Uber rave.sm;
#HASMUSIC:1;
#HASBANNER:1;
#MUSICLENGTH:135.799;
// end cache tags

//---------------dance-single - sky----------------
#NOTES:
     dance-single:
     sky:
     Hard:
     10:
     0.877,1.000,0.898,0.265,0.703,670.000,122.000,36.000,0.000,6.000:

0000
0000
0000
0000
,
0000
0000
0000
0000
,
0000
0000
0000
0000
,
0000
0000
0000
0000
,
0000
0000
0000
0000
,
0000
0000
0000
0000
,
0000
0000
0000
0000
,
0000
0000
0000
0000
,
0000
0000
0000
0000
,
1000
0000
0100
0000
0001
0000
0100
0000
0001
0000
0100
0000
0010
0000
0101
0010
,
1000
0000
0100
0000
0010
0000
0001
0000
0100
0000
0010
0000
0001
0000
0100
0010
,
1000
0000
0010
0000
0101
0000
1000
0000
0010
0000
0100
0000
0001
0000
1010
0001
,
1000
0000
0100
0000
0011
0000
0100
0000
0010
0000
1000
0000
0100
0000
0010
1000
,
0001
0000
0000
0000
0101
0000
0000
0000
0011
0000
0000
0000
1001
0000
0010
0100
,
1000
0000
0000
0000
1001
0000
0000
0000
1100
0000
0000
0000
1010
0000
0100
0001
,
1010
0000
0000
0100
1000
0000
1000
0000
0001
0000
0000
0010
1000
0000
0100
0000
,
1000
0000
0000
0100
1001
0000
0010
0000
0100
0000
0010
0000
0101
0000
1000
0100
,
0001
0000
1001
0010
0100
0000
1100
0010
,
0001
0000
1010
0001
0000
0001
1010
0100
,
1000
0000
0011
0100
0010
0000
1100
0001
,
1000
0100
0001
0010
0100
1000
0100
0001
0010
0100
1000
0100
0001
1000
0010
0100
,
0001
0000
1100
0010
1000
0000
0011
0100
,
1000
0000
0110
0001
0000
1000
0101
0010
,
0001
0000
1100
0010
0010
0000
1100
0100
,
0001
0010
0100
1000
0001
0100
0010
1000
0100
0010
1000
0001
0100
1000
0010
0100
,
1000
0100
0010
0001
1000
0100
0010
0100
0001
0010
0100
1000
0001
0010
0100
1000
,
0010
0100
0001
0010
0100
1000
0001
0010
1000
0100
0010
0001
0010
0100
0010
1000
,
0001
0100
0010
0001
1000
0100
0010
0001
0100
0010
1000
0100
0001
0010
1000
0100
,
0010
1000
0001
0100
0010
1000
0001
0010
0100
0001
0010
1000
0100
0010
0100
1000
,
0100
0010
0001
0010
0100
0010
0001
0010
1000
0100
0010
0100
1000
0100
0010
0100
,
1000
0001
0100
0010
1000
0001
0100
0010
1000
0010
0100
0001
1000
0010
0100
0001
,
0010
0100
1000
0100
1000
0001
1000
0010
1000
0100
1000
0100
0010
0100
0001
0010
,
0001
0010
0100
0010
1000
0001
0100
0010
0100
0010
1000
0010
0100
0001
0010
0100
,
1000
0000
1010
0100
1010
0000
1100
0010
,
1100
0000
0000
0000
1001
0000
0010
0000
1001
0000
0100
0000
0011
0100
1000
0010
,
1100
0000
1010
0001
1010
0000
1100
1000
,
0101
0000
0000
0000
1011
0000
0000
0000
1001
0010
0100
0010
1101
0000
0000
0000
,
0101
0000
0011
1000
0001
0000
0101
0010
,
1100
0000
0011
1000
0011
1000
0100
0010
,
1001
0000
1010
0100
1010
0000
1001
0010
,
1100
0010
0001
0010
0100
0010
0001
0010
1000
0001
0010
0100
0010
0001
0010
0100
,
0002
0000
0000
0000
0000
0000
0000
0000
0000
0000
0000
0000
0000
0000
0000
0003
,
0020
0000
0000
0000
0000
0000
0000
0000
0000
0000
0000
0000
0000
0000
0000
0030
,
0200
0000
0000
0000
0000
0000
0000
0000
0000
0000
0000
0000
0000
0000
0000
0300
,
2000
0000
0000
0000
0000
0000
0000
0000
0000
0000
0000
0000
0000
0000
0000
3000
,
0001
0010
1001
0000
1000
0100
0011
0000
,
0010
0100
1010
0100
1000
0010
0101
0000
,
0010
0001
1010
0000
0100
0001
1010
0000
,
0010
0000
0010
0100
0010
0000
0010
0100
0001
0010
0001
0010
0001
0100
0001
0100
,
1000
1010
1100
1010
,
1001
1010
1100
1010
,
1010
0011
0110
0011
,
1010
0101
1010
0101
,
2001
0010
0100
0010
0001
0010
0100
0010
0001
0010
0001
0100
0001
0010
0001
3100
,
0021
1000
0100
0001
0100
1000
0001
1000
0100
1000
0100
0001
0100
1000
0100
1030
,
0201
0010
0001
0010
1000
0010
0001
0010
0001
1000
0010
1000
0001
1000
0001
1300
,
0021
0100
1000
0100
0001
0100
1000
0100
0001
1000
0100
1000
0001
0100
1000
0031
,
0100
0000
0000
1000
0011
0000
1000
0000
0010
0000
0000
0000
1100
0000
0000
0000
,
0010
0000
0010
1000
0101
0000
0010
0000
1000
0000
0100
0000
0010
0000
1000
0000
,
0001
0000
0000
0010
1100
0000
0010
0000
0100
0000
0010
0000
1001
0000
0101
0000
,
0001
0100
0010
1000
0100
0010
1000
0001
1000
0010
0100
1000
0010
0100
0001
0010
,
1000
0000
1010
0100
1010
0000
1100
0000
,
0011
0001
1010
0100
1010
0001
1010
0100
,
1001
0000
1001
0000
1100
0000
1010
1000
,
0001
0100
0010
1000
0100
0010
1000
0001
1000
0010
0100
0001
0010
0100
0001
0010
,
0200
0000
0000
0000
0000
0000
0000
0000
0000
0000
0000
0000
0000
0000
0000
0300
,
0002
0000
0000
0000
0000
0000
0000
0000
0000
0000
0000
0000
0000
0000
0000
0003
,
2000
0000
0000
0000
0000
0000
0000
0000
0000
0000
0000
0000
0000
0000
0000
3000
,
0020
0000
0000
0000
0000
0000
0000
0000
0000
0000
0000
0000
0000
0000
0000
0030
,
0002
0000
0000
0000
0000
0000
0000
0000
0000
0000
0000
0000
0000
0000
0000
0003
,
0200
0000
0000
0000
0000
0000
0000
0000
0000
0000
0000
0000
0000
0000
0000
0300
,
2000
0000
0000
0000
0000
0000
0000
0000
0000
0000
0000
0000
0000
0000
0000
3000
,
0002
0000
0000
0000
0000
0000
0000
0000
0000
0000
0000
0000
0000
0000
0000
0003
,
2020
0000
0000
0000
0000
0000
0000
0000
0000
0000
0000
0000
0000
0000
0000
3030
,
0202
0000
0000
0000
0000
0000
0000
0000
0000
0000
0000
0000
0000
0000
0000
0303
,
2020
0000
0000
0000
0000
0000
0000
0000
0000
0000
0000
0000
0000
0000
0000
3030
,
0202
0000
0000
0000
0000
0000
0000
0303
,
2220
0000
0000
0000
0000
0000
0000
3330
,
2202
0000
0000
0000
0000
0000
0000
3303
,
2022
0000
0000
0000
0000
0000
0000
3033
,
0222
0000
0000
0000
0000
0000
0000
0333
,
1000
0000
0101
0000
0000
0100
0011
1000
,
1000
0000
0011
0100
0000
0100
1000
0001
,
0001
0000
0110
0000
0000
0010
0100
1000
,
1000
0000
0101
0010
0000
0001
1000
0100
,
0100
0000
0011
0000
0000
0010
0001
0100
,
0100
0000
1001
0100
0000
0010
0100
1000
,
1000
0000
0101
0000
0000
1000
0100
0010
,
0010
0000
0101
0010
0000
1000
0100
0001
,
0001
0010
1000
0101
1000
0110
0010
0101
,
1000
1010
0001
1010
0001
1010
0100
1001
,
0010
0000
1010
0100
0010
0100
0011
1000
,
0100
0010
1100
0010
0100
0010
0101
1000
,
1000
0100
0010
0100
0001
0100
0010
1000
0100
0001
0010
0100
0001
0010
1000
0010
,
0001
0010
0100
1000
0010
0001
0100
1000
0010
0001
0100
1000
0010
0100
1000
0010
,
0001
0010
0100
1000
0100
0010
0001
0010
0100
1000
0001
0100
0010
0100
0001
0100
,
1000
0001
0010
0001
0100
1000
0010
0100
0001
0100
0010
1000
0100
0010
0001
0100
,
1001
0000
0000
0000
;
